#TITLE:Dual Control;
#SUBTITLE:;
#ARTIST:Mr. T;
#TITLETRANSLIT:;
#SUBTITLETRANSLIT:;
#ARTISTTRANSLIT:;
#CREDIT:;
#BANNER:;
#BACKGROUND:;
#LYRICSPATH:;
#CDTITLE:;
#MUSIC:Dual Control.mp3;
#MUSICLENGTH:102.922;
#OFFSET:-0.040;
#SAMPLESTART:13.145;
#SAMPLELENGTH:12.000;
#SELECTABLE:YES;
#BPMS:0.000=140.000,4.500=131.000,5.500=110.000,6.333=70.000,7.500=40.000,12.500=50.000,13.000=80.000,13.500=170.000,16.000=140.000;
#STOPS:;
#BGCHANGES:;
#FIRSTBEAT:0.000;

#LASTBEAT:224.000;

#SONGFILENAME:Songs/EXTRA/Dual Control/Dual Control.sm;

#HASMUSIC:1;

#HASBANNER:0;


//---------------dance-single - MANIAC----------------
#NOTES:
     dance-single:
     MANIAC:
     hard:
     9:
     0.561,0.517,0.282,0.175,0.670,357.000,29.000,18.000,0.000,0.000:  // measure 1
1200
0000
0000
0000
0300
0000
0000
0000
0000
0021
0000
0000
0000
0030
0000
0000
,  // measure 2
0000
0000
0000
1000
0000
0000
0000
0000
0000
0001
0000
0000
0000
0000
1000
0000
0000
0000
0010
0000
0000
0100
0000
0000
,  // measure 3
0000
0010
0000
0000
1000
0000
0200
0000
0000
0000
0000
0000
0000
0000
0000
0000
,  // measure 4
0300
1000
0001
0010
0000
0000
0000
0000
,  // measure 5
1000
0010
0001
0000
0001
0010
1000
0000
,  // measure 6
1000
0100
0001
0000
0001
0100
1000
0000
,  // measure 7
1000
0100
0000
0100
0000
0000
0000
0000
0001
0100
0000
0100
0000
0000
0000
0000
,  // measure 8
0010
1000
0100
0000
0010
0001
0100
0000
,  // measure 9
1000
0100
0011
0000
0100
0010
0011
0000
,  // measure 10
0001
0010
0110
0000
0010
0100
1100
0000
,  // measure 11
0100
0001
1100
0000
0010
1000
0011
0000
,  // measure 12
0110
1000
0101
0000
0110
0001
1100
0000
,  // measure 13
0010
1000
0000
1000
0100
1000
0000
1000
0100
0010
0000
0010
0000
0000
0000
0000
,  // measure 14
0010
0001
0000
0001
0100
0001
0000
0001
0100
0010
0000
0010
0000
0000
0000
0000
,  // measure 15
1000
0001
0000
0001
0010
0001
0000
0001
0100
0010
0000
0010
0000
0000
0000
0000
,  // measure 16
0001
1000
0000
1000
0010
1000
0000
1000
0100
0010
0000
0010
0000
0000
0000
0000
,  // measure 17
0010
1000
0000
1000
0100
1000
0000
1000
0100
0010
0000
0010
0000
0000
0000
0000
,  // measure 18
0010
0001
0000
0001
0100
0001
0000
0001
0100
0010
0000
0010
0000
0000
0000
0000
,  // measure 19
1000
0001
0000
0001
0010
0001
0000
0001
0100
0010
0000
0010
0000
0000
0000
0000
,  // measure 20
0001
1000
0000
1000
0010
1000
0000
1000
0100
0010
0000
0010
0000
0000
0000
0000
,  // measure 21
1000
0100
0000
0010
0000
0000
0001
0000
0010
0100
0000
0001
0000
0000
1000
0000
,  // measure 22
0100
1000
0000
0100
0000
0000
0010
0000
0001
1000
0000
0100
0000
0000
0010
0000
,  // measure 23
0001
0100
0000
0001
0000
0000
0010
0000
0001
1000
0000
0100
0000
0000
0100
0000
,  // measure 24
1000
0010
0000
0010
0000
0000
0001
0000
0100
0010
0000
1000
0000
0000
0100
0000
,  // measure 25
1000
0000
0000
0000
0100
0020
0000
0000
2030
0000
0000
0000
3002
0000
0000
0000
,  // measure 26
0103
0020
0000
0000
2030
0000
0000
0000
3200
0000
0000
0000
0302
0000
0000
0000
,  // measure 27
0203
0000
0320
0000
,  // measure 28
2030
0000
0000
0000
0000
0001
0000
0001
0000
0000
0002
0000
0000
0000
0000
0000
,  // measure 29
3003
0110
0000
0011
,  // measure 30
0000
0110
0000
1010
,  // measure 31
0000
0000
0101
0100
0000
0000
0110
0010
,  // measure 32
0000
0000
1001
0010
0000
0000
0101
0010
,  // measure 33
0000
0000
1001
0100
0000
0000
1010
0001
,  // measure 34
0000
0000
1100
0011
0000
0000
0110
0101
,  // measure 35
0000
0000
1010
0101
0000
0000
0011
0000
,  // measure 36
2000
0001
0000
0001
0001
0000
3100
0000
,  // measure 37
0001
0000
0000
0000
1000
0100
0000
0000
0010
0000
0000
0000
0001
0000
0000
0000
,  // measure 38
1000
0000
0000
0000
0100
0010
0000
0000
0010
0001
0000
0001
0000
0000
0000
0000
,  // measure 39
0100
0000
0000
0000
1000
0010
0000
0100
0000
0000
0000
0000
0001
1000
0000
0000
,  // measure 40
0010
0000
0000
0100
0000
0000
0001
0000
1000
0000
0000
0000
0100
0000
0000
0000
,  // measure 41
0010
0000
0000
0000
0001
1000
0000
0000
0100
0000
0010
0000
0100
0000
0000
0000
,  // measure 42
1000
0000
0000
0010
0000
0100
0000
0001
0000
0000
0000
1000
0000
0000
0000
0000
,  // measure 43
0000
0000
0100
0000
0010
0000
0001
1000
0000
0000
0010
0000
0100
0000
0000
0000
,  // measure 44
0001
0000
0000
1000
0100
0000
0000
0000
0200
0000
0000
0000
0310
0000
0000
0000
,  // measure 45
0010
1000
0000
1000
0100
1000
0000
1000
0100
0010
0000
0010
0000
0000
0000
0000
,  // measure 46
0010
0001
0000
0001
0100
0001
0000
0001
0100
0010
0000
0010
0000
0000
0000
0000
,  // measure 47
1000
0001
0000
0001
0010
0001
0000
0001
0100
0010
0000
0010
0000
0000
0000
0000
,  // measure 48
0001
1000
0000
1000
0010
1000
0000
1000
0100
0010
0000
0010
0000
0000
0000
0000
,  // measure 49
0010
1000
0000
1000
0100
1000
0000
1000
0100
0010
0000
0010
0000
0000
0000
0000
,  // measure 50
0010
0001
0000
0001
0100
0001
0000
0001
0100
0010
0000
0010
0000
0000
0000
0000
,  // measure 51
1000
0001
0000
0001
0010
0001
0000
0001
0100
0010
0000
0010
0000
0000
0000
0000
,  // measure 52
0001
1000
0000
1000
0010
1000
0000
1000
0100
0010
0000
0010
0000
0000
0000
0000
,  // measure 53
1000
0100
0010
0001
0010
1000
0010
0001
,  // measure 54
0100
0010
1000
0100
1000
0010
0001
0010
,  // measure 55
0100
0001
0100
1000
0010
1000
0100
0010
,  // measure 56
0100
1000
0010
1000
0100
0001
2000
0200
,  // measure 57
3300
0000
0000
0000
;

//---------------dance-single - ANOTHER----------------
#NOTES:
     dance-single:
     ANOTHER:
     medium:
     6:
     0.373,0.461,0.039,0.078,0.000,257.000,4.000,8.000,0.000,0.000:  // measure 1
0000
0000
0000
0000
,  // measure 2
0000
0000
0000
0000
0000
0000
0000
0100
,  // measure 3
0000
0002
0000
0000
,  // measure 4
0000
0010
0010
0013
0000
0000
0000
0000
,  // measure 5
1000
0000
0100
0000
0010
0001
0100
0000
,  // measure 6
1000
0000
0010
0000
0100
0001
1000
0000
,  // measure 7
0100
0000
0010
0000
0001
0010
0001
1000
,  // measure 8
0100
0000
0010
0000
0100
0100
0100
0000
,  // measure 9
1000
0000
0001
0000
0100
0010
1000
0000
,  // measure 10
0001
0000
0010
0000
0100
1000
0010
0000
,  // measure 11
0100
0000
0001
0000
0010
1000
0001
0100
,  // measure 12
0001
0000
0100
0000
1000
0100
0010
0001
,  // measure 13
0100
1000
0001
0001
,  // measure 14
0100
0000
1000
0010
0100
0000
0100
0000
,  // measure 15
0001
0000
1000
0100
0010
0000
0001
0000
,  // measure 16
0002
0000
0000
0000
0000
0000
0000
0003
,  // measure 17
1000
0000
0100
0000
0010
0001
1000
0000
,  // measure 18
0100
0000
0010
0100
0010
0100
0001
0000
,  // measure 19
0100
0000
0010
0000
1000
0100
0001
0000
,  // measure 20
0100
0000
1000
0000
1000
0010
0001
0010
,  // measure 21
2000
0000
0000
0010
,  // measure 22
0000
0001
0000
0100
,  // measure 23
3010
0100
0001
0010
,  // measure 24
0100
1000
0001
0000
0100
0001
0010
0000
,  // measure 25
0100
0000
0100
0000
0100
0001
1000
0000
,  // measure 26
0200
0000
0010
0010
,  // measure 27
0020
0300
0000
0000
0000
0000
0000
0000
,  // measure 28
0031
1000
0010
1000
,  // measure 29
0100
0100
0010
1000
,  // measure 30
0001
0100
0010
0100
,  // measure 31
0001
1001
0100
0110
,  // measure 32
0001
0000
1000
0010
1000
0001
0100
0001
,  // measure 33
0010
0100
1000
0010
0001
0010
1000
0100
,  // measure 34
1000
0001
0010
0100
0010
0001
1000
0010
,  // measure 35
0100
0001
0100
1000
0010
0001
0010
1000
,  // measure 36
0100
0010
0001
1000
0001
0000
0100
0000
,  // measure 37
0010
0100
1000
0000
0001
0010
0100
0000
,  // measure 38
0001
0000
1000
0000
0010
0100
0001
0000
,  // measure 39
0001
0010
0001
0000
0001
0010
0001
0010
,  // measure 40
0001
0000
0100
0000
1000
0010
0100
0001
,  // measure 41
0100
0000
0100
0010
0100
0000
1000
0010
,  // measure 42
1000
0000
0001
0100
0001
0000
0100
0010
,  // measure 43
0001
0100
1000
0010
,  // measure 44
1000
0001
0010
0000
0001
0000
0011
0000
,  // measure 45
1001
0000
0010
0000
0100
0000
1000
0100
,  // measure 46
1000
0000
0001
0000
0100
0000
0010
1000
,  // measure 47
0001
0000
0100
0000
0100
0010
0001
0000
,  // measure 48
0001
0000
1000
0000
0010
0010
0010
0010
,  // measure 49
0010
1000
0001
0010
,  // measure 50
0100
0000
0010
1000
0001
0100
0001
0000
,  // measure 51
0010
0000
0100
0000
0010
1000
0001
0000
,  // measure 52
0100
0000
0010
0000
1000
0001
0100
0001
,  // measure 53
0020
0000
0000
0000
,  // measure 54
0230
0000
0000
0010
,  // measure 55
0320
0000
0000
0000
,  // measure 56
0001
0000
0001
0000
0001
0000
0031
1000
;

//---------------dance-single - BASIC----------------
#NOTES:
     dance-single:
     BASIC:
     easy:
     4:
     0.265,0.381,0.253,0.107,0.000,154.000,26.000,11.000,0.000,0.000:  // measure 1
0000
0000
0000
0000
,  // measure 2
0000
0000
0000
0000
,  // measure 3
0000
0000
0000
0000
,  // measure 4
0000
0000
0000
0000
,  // measure 5
0001
1000
0010
0000
,  // measure 6
0001
1000
0010
0100
,  // measure 7
0000
0100
0000
0100
,  // measure 8
0010
0001
2000
0000
,  // measure 9
3100
0000
0001
0000
,  // measure 10
1000
0010
0100
0000
,  // measure 11
0100
1000
0001
0001
,  // measure 12
0020
0000
0000
0001
,  // measure 13
0031
0000
1000
0000
,  // measure 14
0010
0000
0100
0001
,  // measure 15
0010
0000
0100
0000
,  // measure 16
0020
0200
0000
0330
,  // measure 17
1000
0001
0100
0000
,  // measure 18
1001
0110
1001
0000
,  // measure 19
0100
0010
0100
1000
,  // measure 20
0001
0001
0001
0001
,  // measure 21
0002
0000
0000
0003
,  // measure 22
2000
0000
0000
3000
,  // measure 23
0020
0000
0000
0030
,  // measure 24
0200
0000
0000
0300
,  // measure 25
1001
0000
0000
0000
,  // measure 26
0001
0010
0100
1000
,  // measure 27
0020
0000
0000
0000
,  // measure 28
1030
0001
1000
0100
,  // measure 29
0010
0000
0010
0000
,  // measure 30
0100
0000
0100
1000
,  // measure 31
0001
0000
0001
0000
,  // measure 32
0010
1000
1001
0000
,  // measure 33
0100
0010
0100
0000
,  // measure 34
0110
0000
0001
0000
,  // measure 35
1000
0011
0000
0100
,  // measure 36
0010
1000
0010
0001
,  // measure 37
0001
0000
1000
1000
,  // measure 38
0010
0000
0100
0100
,  // measure 39
1000
0001
0001
0000
,  // measure 40
0100
0010
1000
0001
,  // measure 41
0001
0000
0100
1000
,  // measure 42
1010
0101
0000
0010
,  // measure 43
0110
0000
1001
0000
,  // measure 44
0100
0010
0001
1000
,  // measure 45
0010
0000
1000
0100
,  // measure 46
0010
0001
1000
1001
,  // measure 47
0010
1001
0100
1001
,  // measure 48
0010
1001
0100
1001
,  // measure 49
0100
1001
0100
1001
,  // measure 50
0010
1001
0010
1001
,  // measure 51
0011
1100
0010
0100
,  // measure 52
0001
1000
0002
1000
,  // measure 53
1003
1000
0010
0100
,  // measure 54
0001
1000
0100
0110
,  // measure 55
1001
0010
0100
0011
,  // measure 56
1200
0010
0010
0010
,  // measure 57
0300
0000
0000
0000
;
